osu file format v14

[General]
AudioFilename: BRiGHT FLiGHT ( Cut ver. ).mp3
AudioLeadIn: 1500
PreviewTime: 68184
Countdown: 0
SampleSet: Soft
StackLeniency: 0.7
Mode: 0
LetterboxInBreaks: 0
WidescreenStoryboard: 0

[Editor]
Bookmarks: 6461,70633,121596
DistanceSpacing: 1.1
BeatDivisor: 4
GridSize: 4
TimelineZoom: 1.7

[Metadata]
Title:BRiGHT FLiGHT
TitleUnicode:BRiGHT FLiGHT
Artist:LiSA
ArtistUnicode:LiSA
Creator:eINess
Version:Habi's Easy
Source:
Tags:6th Single Album Oribe Risa 織部 里沙 Kawaiwkyik ts8zs HabiHolic Regraz
BeatmapID:511201
BeatmapSetID:212993

[Difficulty]
HPDrainRate:2
CircleSize:3
OverallDifficulty:2
ApproachRate:3
SliderMultiplier:0.9
SliderTickRate:1

[Events]
//Background and Video events
0,0,"BG - sky.jpg",0,0
//Break Periods
//Storyboard Layer 0 (Background)
//Storyboard Layer 1 (Fail)
//Storyboard Layer 2 (Pass)
//Storyboard Layer 3 (Foreground)
//Storyboard Sound Samples

[TimingPoints]
14671,405.405405405405,4,2,1,50,1,0
68184,-100,4,2,1,80,0,1
90887,-100,4,2,1,80,0,0
112373,-100,4,2,0,40,0,0
121596,-100,4,2,1,30,0,0

[Colours]
Combo1 : 128,128,255
Combo2 : 128,255,255
Combo3 : 45,150,255
Combo4 : 28,228,251

[HitObjects]
256,192,14671,12,4,16292,0:0:0:0:
48,204,17103,6,0,L|40:60,2,135,0|0|2,0:0|0:0|0:0,0:0:0:0:
108,280,18725,2,0,B|139:294|174:289|200:272,1,90,2|8,0:0|0:0,0:0:0:0:
267,212,19535,6,0,B|307:182|361:182|401:209|421:248,1,180,2|2,0:0|0:0,0:0:0:0:
328,288,20752,1,8,0:0:0:0:
232,308,21157,2,0,B|186:288|160:242|163:193|187:157,1,180,2|2,0:0|0:0,0:0:0:0:
272,104,22373,1,8,0:0:0:0:
368,144,22779,6,0,B|385:116|383:82|368:56,1,90,4|8,0:0|0:0,0:0:0:0:
272,104,23589,2,0,L|292:292,1,180,2|2,0:0|0:0,0:0:0:0:
216,344,24806,1,8,0:0:0:0:
144,268,25211,2,0,B|113:252|78:252|48:264,1,90,2|8,0:0|0:0,0:0:0:0:
48,163,26022,6,0,B|94:149|140:153|180:171,1,135,12|8,0:0|0:0,0:0:0:0:
256,300,27238,2,0,L|316:296,1,45,8|4,0:0|0:0,0:0:0:0:
432,228,28049,1,8,0:0:0:0:
491,147,28454,2,0,B|463:133|432:130|403:136,1,90,2|8,0:0|0:0,0:0:0:0:
320,188,29265,5,4,0:0:0:0:
236,136,29670,2,0,L|228:40,2,90,8|2|8,0:0|0:0|0:0,0:0:0:0:
172,212,30887,2,0,L|180:308,1,90,2|8,0:0|0:0,0:0:0:0:
263,347,31698,2,0,B|318:380|385:372|431:335,1,180,2|2,0:0|0:0,0:0:0:0:
464,240,32914,5,8,0:0:0:0:
372,192,33319,2,0,B|384:140|384:140|376:44,2,135,2|4|8,0:0|0:0|0:0,0:0:0:0:
284,240,34941,2,0,B|250:251|214:250|183:240,1,90,8|8,0:0|0:0,0:0:0:0:
108,292,35752,6,0,L|92:112,1,180,4|2,0:0|0:0,0:0:0:0:
172,52,36968,1,8,0:0:0:0:
239,119,37373,2,0,B|277:171|352:177|398:133,1,180,2|2,0:0|0:0,0:0:0:0:
476,72,38589,1,8,0:0:0:0:
500,168,38995,6,0,B|508:256|508:256|488:308,1,135,2|2,0:0|0:0,0:0:0:0:
396,336,40008,1,2,0:0:0:0:
300,312,40414,2,0,B|265:279|214:275|175:297,1,135,4|8,0:0|0:0,0:0:0:0:
76,312,41427,2,0,B|91:282|92:248|80:220,1,90,2|8,0:0|0:0,0:0:0:0:
16,148,42238,6,0,B|41:191|91:210|138:197|168:167,1,180,4|2,0:0|0:0,0:0:0:0:
248,104,43454,1,8,0:0:0:0:
336,60,43860,2,0,B|354:90|351:126|332:152,1,90,2|8,0:0|0:0,0:0:0:0:
260,208,44670,2,0,B|243:235|245:268|260:293,1,90,2|8,0:0|0:0,0:0:0:0:
336,356,45481,6,0,L|484:348,2,135,2|2|8,0:0|0:0|0:0,0:0:0:0:
239,331,47103,2,0,B|199:281|128:273|79:309,1,180,2|2,0:0|0:0,0:0:0:0:
28,224,48319,1,8,0:0:0:0:
108,164,48725,6,0,B|125:134|123:100|108:72,2,90,2|4|2,0:0|0:0|0:0,0:0:0:0:
20,116,49941,1,8,0:0:0:0:
19,215,50346,2,0,B|56:267|129:277|178:240,1,180,2|2,0:0|0:0,0:0:0:0:
256,176,51562,1,8,0:0:0:0:
332,240,51968,6,0,B|383:279|455:267|491:217,1,180,4|2,0:0|0:0,0:0:0:0:
404,172,53184,2,0,L|396:124,1,45,2|4,0:0|0:0,0:0:0:0:
276,44,53995,1,8,0:0:0:0:
204,112,54400,2,0,B|178:89|170:55|180:25,2,90,2|8|4,0:0|0:0|0:0,0:0:0:0:
300,144,55616,5,8,0:0:0:0:
244,224,56022,2,0,B|288:253|344:247|383:213|396:169,1,180,2|2,0:0|0:0,0:0:0:0:
384,76,57238,1,8,0:0:0:0:
476,36,57643,2,0,B|489:69|486:103|472:132,1,90,2|8,0:0|0:0,0:0:0:0:
400,184,58454,6,0,B|332:184|332:184|288:208|288:208|216:208,1,180,2|2,0:0|0:0,0:0:0:0:
144,152,59670,1,8,0:0:0:0:
52,196,60076,2,0,B|34:165|37:128|56:100,1,90,2|8,0:0|0:0,0:0:0:0:
124,44,60887,2,0,L|220:48,1,90,2|8,0:0|0:0,0:0:0:0:
312,32,61698,6,0,B|297:100|303:167|325:227,1,180,4|2,0:0|0:0,0:0:0:0:
392,280,62914,1,8,0:0:0:0:
392,280,63319,2,0,L|496:272,2,90,2|8|2,0:0|0:0|0:0,0:0:0:0:
308,332,64535,1,8,0:0:0:0:
240,260,64941,6,0,B|201:231|148:239|118:274,1,135,2|2,0:0|0:0,0:0:0:0:
96,80,66360,2,0,B|135:108|187:100|216:65,1,135,2|8,0:0|0:0,0:0:0:0:
312,32,67373,2,0,L|408:40,1,90,2|8,0:0|0:0,0:0:0:0:
480,96,68184,6,0,B|492:148|465:200|416:223|370:216,1,180,4|2,0:0|0:0,0:0:0:0:
296,168,69400,1,8,0:0:0:0:
208,212,69806,2,0,B|158:213|115:180|100:133|109:91,1,180,2|2,0:0|0:0,0:0:0:0:
184,28,71022,1,8,0:0:0:0:
260,92,71427,6,0,L|400:88,1,135,2|2,0:0|0:0,0:0:0:0:
488,208,72643,2,0,L|492:268,1,45,8|4,0:0|0:0,0:0:0:0:
368,336,73454,1,8,0:0:0:0:
288,276,73860,2,0,L|180:280,1,90,2|8,0:0|0:0,0:0:0:0:
136,356,74670,6,0,B|95:327|81:274|100:227|135:201,1,180,4|2,0:0|0:0,0:0:0:0:
208,132,75887,1,8,0:0:0:0:
288,192,76292,2,0,L|424:184,2,135,2|2|8,0:0|0:0|0:0,0:0:0:0:
195,223,77914,6,0,B|162:186|109:177|65:198|41:234,1,180,4|2,0:0|0:0,0:0:0:0:
124,292,79130,2,0,L|128:344,1,45,8|4,0:0|0:0,0:0:0:0:
276,336,79941,5,8,0:0:0:0:
372,356,80346,1,2,0:0:0:0:
440,284,80752,1,8,0:0:0:0:
412,188,81157,6,0,B|395:158|397:124|412:96,1,90,4|8,0:0|0:0,0:0:0:0:
332,40,81968,2,0,L|232:44,1,90,2|8,0:0|0:0,0:0:0:0:
148,32,82779,2,0,B|136:84|176:116|176:116|120:184,1,180,2|2,0:0|0:0,0:0:0:0:
64,260,83995,1,8,0:0:0:0:
3,343,84400,6,0,B|43:374|96:373|136:344|154:304,1,180,2|2,0:0|0:0,0:0:0:0:
204,212,85616,2,0,L|256:216,1,45,8|2,0:0|0:0,0:0:0:0:
352,320,86427,2,0,L|448:328,2,90,8|2|8,0:0|0:0|0:0,0:0:0:0:
307,232,87643,6,0,B|362:198|377:127|348:74,1,180,4|2,0:0|0:0,0:0:0:0:
256,36,88860,1,8,0:0:0:0:
164,72,89265,2,0,B|132:128|151:196|202:229,1,180,2|2,0:0|0:0,0:0:0:0:
256,316,90481,1,8,0:0:0:0:
340,264,90887,6,0,B|387:247|437:261|467:295,2,135,4|4|4,0:0|0:0|0:0,0:0:0:0:
268,204,92508,2,0,B|252:172|252:138|264:108,1,90,2|8,0:0|0:0,0:0:0:0:
344,60,93319,2,0,B|360:92|360:126|348:156,1,90,2|8,0:0|0:0,0:0:0:0:
256,192,94130,12,4,95549,0:0:0:0:
36,92,97373,5,4,0:0:0:0:
20,188,97779,2,0,B|48:245|119:265|173:233,1,180,8|8,0:0|0:0,0:0:0:0:
256,172,98995,2,0,B|289:161|323:162|353:172,1,90,2|8,0:0|0:0,0:0:0:0:
436,204,99806,2,0,L|444:108,1,90,2|8,0:0|0:0,0:0:0:0:
367,48,100616,6,0,B|320:91|253:95|202:65,1,180,2|2,0:0|0:0,0:0:0:0:
108,36,101833,2,0,L|52:40,1,45,8|4,0:0|0:0,0:0:0:0:
48,192,102643,2,0,B|34:223|39:258|56:284,2,90,8|2|8,0:0|0:0|0:0,0:0:0:0:
140,232,103860,6,0,L|332:232,1,180,4|2,0:0|0:0,0:0:0:0:
408,280,105076,1,8,0:0:0:0:
476,208,105481,2,0,B|491:178|492:144|480:116,1,90,2|8,0:0|0:0,0:0:0:0:
408,56,106292,2,0,L|308:64,1,90,2|8,0:0|0:0,0:0:0:0:
256,192,107103,12,4,110346,0:0:0:0:
256,136,112373,6,0,B|267:106|265:75|254:48,2,90,2|2|0,0:0|0:0|0:0,0:0:0:0:
203,223,113589,2,0,B|245:247|296:236|325:202,2,135,0|2|0,0:0|0:0|0:0,0:0:0:0:
159,139,115211,6,0,B|124:104|70:98|27:121|5:158,1,180,0|2,0:0|0:0,0:0:0:0:
8,260,116427,2,0,L|12:312,1,45,4|4,0:0|0:0,0:0:0:0:
256,192,116833,12,0,121596,0:0:0:0:
